Skip to main content

Dawes Live at Silverton Casino on 2011-06-23

Audio Preview

etree
Dawes Live at Silverton Casino on 2011-06-23

by Dawes



01. If I Wanted Someone
02. My Girl To Me
03. Coming Back to a Man
04. Million Dollar Bill
05. How Far We've Come
06. Time Spent in Los Angeles
07. A Little Bit of Everything
08. When My Time Comes
09. Fire Away


Collection Dawes
Band/Artist Dawes
Venue Silverton Casino
Location Las Vegas, NV

Source Superlux CM-H8K HYPERs (open) mics > Naiant Biggest Box preamp > Tascam DR-07 recorder > .WAV 16/44.1
Lineage Tascam DR-07 > Audacity (Normalize and track) > WAV > xACT 2.13 (SBE fix & flac level 8) > FLAC
Taped by HClayton
Transferred by HClayton

Notes

with Pete McNeal(from Brett Dennen's band)

Notes: Here is my pull from the Dawes. They were opening for Brett Dennen. Never heard of them before, but glad I taped them. I was really impressed

Location: Back of the room next to SBD

SHNTOOL:
length expanded size cdr WAVE problems fmt ratio filename
4:31.62 47950268 B --- -- ---xx flac 0.5525 Dawes2011-06-23t01.flac
5:38.13 59653820 B --- -- ---xx flac 0.5668 Dawes2011-06-23t02.flac
4:14.26 44866796 B --- -- ---xx flac 0.5363 Dawes2011-06-23t03.flac
4:45.73 50445740 B --- -- ---xx flac 0.4887 Dawes2011-06-23t04.flac
3:03.15 32316524 B --- -- ---xx flac 0.5494 Dawes2011-06-23t05.flac
4:42.48 49857740 B --- -- ---xx flac 0.5350 Dawes2011-06-23t06.flac
6:20.71 67199036 B --- -- ---xx flac 0.5120 Dawes2011-06-23t07.flac
5:58.23 63205340 B --- -- ---xx flac 0.5268 Dawes2011-06-23t08.flac
6:44.44 71369132 B --- -- ---xx flac 0.5320 Dawes2011-06-23t09.flac
46:00.00 486864396 B 0.5322 (9 files)

comment
Reviews

There are no reviews yet. Be the first one to write a review.
SIMILAR ITEMS (based on metadata)
Dawes
by Dawes
etree
eye 2,724
favorite 1
comment 2
favoritefavoritefavoritefavoritefavorite ( 2 reviews )
Source: AK40 (ORTF, ~6' high @ back of room) >> LC3 >> KM100 >> R-44 (Oade CM) >> WAV @ 24bit/44.1KHz
Dawes
by Dawes
etree
eye 749
favorite 1
comment 0
Source: [SBD] + [AK40 (ORTF, ~7' high @ SBD) > LC3 > KM100 > Aerco MP-2] >> R-44 (Oade CM) >> WAV @ 24bit/44.1KHz
Dawes
by Dawes
etree
eye 1,708
favorite 1
comment 1
favoritefavoritefavoritefavorite ( 1 reviews )
Source: [AK40 (ORTF, ~7' high, back of room @ soundboard) >> LC3 >> KM100] + [digital SBD feed] >> R-44 (Oade CM) >> WAV (24bit/48KHz)
Dawes
by Dawes
etree
eye 2,020
favorite 1
comment 1
favoritefavoritefavoritefavoritefavorite ( 1 reviews )
Source: DPA4023 (DIN config) -> Aerco MP2 -> R-09HR (24/48)
Dawes
by Dawes
etree
eye 4,305
favorite 4
comment 4
favoritefavoritefavoritefavorite ( 4 reviews )
Source: KM140’s > MV100 > PCM-M10 > WAV@24/48 + Digidesign Venue > PCM-M10 > WAV@24/48
Dawes
by Dawes
etree
eye 117
favorite 0
comment 0
Source: Audience
Dawes
by Dawes
etree
eye 731
favorite 3
comment 1
( 1 reviews )
Source: http://fatmusicradio.com/wp/
Dawes
by Dawes
etree
eye 590
favorite 1
comment 0
Source: Allen & Heath GL3300 SBD > Sony PCM-M1 > DAT + Neumann KM140’s > MV100 > -11dB attenuator cable > H2 (mic pads set at -10dB) > WAV @24-bit/48kHz (clamped on ctr post, ~8' high)
Dawes
by Dawes
etree
eye 96
favorite 1
comment 0
Source: FM > Hafler DH330 > Tascam DR-40 > wav (16/44.1)
Dawes
etree
eye 1,738
favorite 1
comment 0
Source: AKG C522MS ("The Pickle Mic") > Grace Lunatec V3 (mic preamp & A>D converter) + Soundcraft 800B SBD > Edirol R44 > WAVs @48kHz/24bit